Torrent Details

Photo Not Available
Avengers Infinity War 2018 PROPER 720p HDCAM x264 [MW]
Size1.2 GB in 1 file
ReleasesAdded on 30.04.2018 at 8:36 into the Movies category by Unknown.
Status61 seeds & 8 peers.
Hash8874833fca5396971fd53059146146dbc9da831d
Rating
  • YourBT Visitors

Status This torrent has been verified.
*

Torrent Description

General
Format : Matroska
Format version : Version 4 / Version 2
File size : 1.18 GiB
Duration : 2 h 29 min
Overall bit rate : 1 132 kb/s

Video
ID : 1
Format : AVC
Format/Info : Advanced Video Codec
Format profile : [email protected]
Format settings : CABAC / 4 Ref Frames
Format settings, CABAC : Yes
Format settings, RefFrames : 4 frames
Codec ID : V_MPEG4/ISO/AVC
Duration : 2 h 29 min
Bit rate : 1 000 kb/s
Width : 1 280 pixels
Height : 528 pixels
Display aspect ratio : 2.40:1
Frame rate mode : Constant
Frame rate : 30.000 FPS
Color space : YUV
Chroma subsampling : 4:2:0
Bit depth : 8 bits
Scan type : Progressive
Bits/(Pixel*Frame) : 0.049
Stream size : 1.04 GiB (88%)
Writing library : x264 core 155 r2893 b00bcaf
Default : Yes
Forced : No

Audio
ID : 2
Format : AAC
Format/Info : Advanced Audio Codec
Format profile : LC
Codec ID : A_AAC-2
Duration : 2 h 29 min
Bit rate : 128 kb/s
Channel(s) : 2 channels
Channel positions : Front: L R
Sampling rate : 48.0 kHz
Frame rate : 46.875 FPS (1024 SPF)
Compression mode : Lossy
Stream size : 137 MiB (11%)
Language : English
Default : Yes
Forced : No












Similar Torrents

No Similar Torrents Found

If we find similar torrents, we normally show them right here. We couldn't find anything for "".

Torrent Trackers

TRACKER URLSEEDSPEERS
Onlineudp://tracker.coppersurfer.tk:6969/announce618
Onlineudp://tracker.pirateparty.gr:6969/announce596
Onlineudp://tracker.opentrackr.org:1337/announce511

Files inside this torrent

FILENAMESIZE
icon Avengers Infinity War 2018 PROPER 720p HDCAM x264 [MW].mkv1.2 GB